Jogos de Estratégia Surviving Mars – Deluxe Edition | [TeamSkeet]Ava Little - Banging Your Sons Redheaded Friend | Lala Kent Shows Off Her Hard-Earned Curves (and Major Abs) in a BikiniMR. BRAIN | Aperçu The Bard's Tale IV sur PC | Aber Vati!

The Hunger Games 2012 BRRIP 720P H264-ZEKTORM

  • Category Movies
  • Type h.264/x264
  • Language English
  • Total size 2.9 GB
  • Uploaded By casandra
  • Downloads 616
  • Last checked 3 months ago
  • Date uploaded 6 years ago
  • Seeders 0
  • Leechers 0

The Hunger Games

Adventure

Every year in the ruins of what was once North America, the nation of Panem forces each of its twelve districts to send a teenage boy and girl to compete in the Hunger Games. Part twisted entertainment, part government intimidation tactic, the Hunger Games are a nationally televised event in which “Tributes” must fight with one another until one survivor remains. Pitted against highly-trained Tributes who have prepared for these Games their entire lives, Katniss is forced to rely upon her sharp instincts as well as the mentorship of drunken former victor Haymitch Abernathy. If she’s ever to return home to District 12, Katniss must make impossible choices in the arena that weigh survival against humanity and life against love. The world will be watching.

Infohash : 167C512099489EA3471D663AA742D6BF4A116BB5



Title : The Hunger Games
Year : 2012
Genre : Action | Adventure | Sci-Fi
iMDB URL : http://www.imdb.com/title/tt1392170/

Complete name : The.Hunger.Games.2012.BRRIP.720P.H264-ZEKTORM.mp4
Format : MPEG-4
Format profile : Base Media
Codec ID : isom
File size : 2.90 GiB
Duration : 2h 22mn
Overall bit rate : 2909 Kbps
Subtitles : English (Format: srt)

Video
ID : 1
Format : AVC
Format/Info : Advanced Video Codec
Format profile : [email protected]
Format settings, CABAC : Yes
Format settings, ReFrames : 12 frames
Codec ID : avc1
Codec ID/Info : Advanced Video Coding
Duration : 2h 22mn
Bit rate mode : Variable
Bit rate : 2464 Kbps
Width : 1280 pixels
Height : 528 pixels
Display aspect ratio : 2.424
Frame rate mode : Constant
Frame rate : 23.976 fps
Resolution : 24 bits
Colorimetry : 4:2:0
Scan type : Progressive
Bits/(Pixel*Frame) : 0.152
Stream size : 2.45 GiB (85%)
Title : Video
Writing library : x264

Audio
ID : 2
Format : AAC
Format/Info : Advanced Audio Codec
Format version : Version 4
Format profile : LC
Format settings, SBR : No
Codec ID : 40
Duration : 2h 22mn
Bit rate mode : Variable
Bit rate : 441 Kbps
Maximum bit rate : 556 Kbps
Channel(s) : 6 channels
Channel positions : Front: L C R, Rear: L R, LFE
Sampling rate : 48.0 KHz
Resolution : 16 bits
Stream size : 450 MiB (15%)
Language : English


Screenshots:




Files:

Subs
  • The.Hunger.Games.2012.BRRIP.720P.H264-ZEKTORM.srt (87.2 KB)
  • º.º.jpg (182.2 KB)
  • The.Hunger.Games.2012.BRRIP.720P.H264-ZEKTORM.mp4 (2.9 GB)

Comments

Code:

  • http://exodus.desync.com:6969/announce
  • udp://tracker.ccc.de:80
  • http://cpleft.com:2710/announce
  • http://tracker.torrentbay.to:6969/announce
  • http://tracker.publicbt.com/announce
  • http://secure.pow7.com/announce
  • http://tracker.csze.com/announce
  • http://i.bandito.org/announce
  • http://tracker.token.ro/announce
  • udp://tracker.istole.it:80
  • udp://tracker.openbittorrent.com:80/announce
  • http://tracker.ex.ua/announce
  • udp://tracker.1337x.org:80/announce