The Texas Chain Saw Massacre | Ver Mas Juegos Para PSP | Animal KingdomChildren of Paradise (1945) | Download | Gordon Ramsays 24 Hours to Hell and Back S01E08 720p WEB x264-CookieMonster [eztv]

Kyaa Super Kool Hain Hum (Hindi) 2012 DVDSCR XviD-NRG

  • Category Movies
  • Type Divx/Xvid
  • Language Hindi
  • Total size 902.2 MB
  • Uploaded By dshareX
  • Downloads 2476
  • Last checked 3 months ago
  • Date uploaded 6 years ago
  • Seeders 0
  • Leechers 0

Infohash : E7C33D019BF88E48FD55AA0863A9BFD64C08EF35

Kyaa Super Kool Hain Hum Screenshots - Click link to check quality before download!
http://iwatchonlinemovie.in/kyaa-super-kool-hain-hum-movie/



NFO:

Code:


Format : AVI
Format/Info : Audio Video Interleave
File size : 902 MiB
Duration : 2h 15mn
Overall bit rate : 929 Kbps

Video
ID : 0
Format : MPEG-4 Visual
Format profile : Advanced [email protected]
Format settings, BVOP : 2
Format settings, QPel : Yes
Format settings, GMC : 3 warppoints
Format settings, Matrix : Default (H.263)
Codec ID : XVID
Codec ID/Hint : XviD
Duration : 2h 15mn
Bit rate : 793 Kbps
Width : 640 pixels
Height : 272 pixels
Display aspect ratio : 2.35:1
Frame rate : 23.976 fps
Color space : YUV
Chroma subsampling : 4:2:0
Bit depth : 8 bits
Scan type : Progressive
Compression mode : Lossy
Bits/(Pixel*Frame) : 0.190
Stream size : 770 MiB (85%)
Writing library : XviD 1.2.1 (UTC 2008-12-04)

Audio
ID : 1
Format : AC-3
Format/Info : Audio Coding 3
Mode extension : CM (complete main)
Format settings, Endianness : Big
Codec ID : 2000
Duration : 2h 15mn
Bit rate mode : Constant
Bit rate : 128 Kbps
Channel(s) : 2 channels
Channel positions : Front: L R
Sampling rate : 48.0 KHz
Bit depth : 16 bits
Compression mode : Lossy
Stream size : 124 MiB (14%)
Alignment : Aligned on interleaves
Interleave, duration : 64 ms (1.53 video frames)
Interleave, preload duration : 192 ms

Files:

  • Kyaa Super Kool Hain Hum (Hindi) 2012 DVDSCR XviD-NRG.avi (902.2 MB)
  • Kyaa Super Kool Hain Hum (Hindi) 2012 DVDSCR XviD-NRG.nfo (2.4 KB)
  • Tracked By 1337x.Org.txt (0.0 KB)
  • Tracked By H33T.Com.txt (0.0 KB)

There are currently no comments. Feel free to leave one :)

Code:

  • udp://tracker.1337x.org:80/announce
  • udp://tracker.openbittorrent.com:80/announce
  • udp://tracker.istole.it:80/announce
  • http://bigtorrent.org:2710/announce