English (USA) | Persona 5 The Animation Saison 01 VOSTFR STREAMING HD | (C94)カリオストロが堕とされるようです (グランブルーファンタジー)Timeless HDTV 720p AC3 5.1 | film de Ron Clements | Baby Tiger Care - My Cute Virtual Pet Friend

Jism 2 (Hindi) 2012 DVDSCR XviD-NRG

  • Category Movies
  • Type Divx/Xvid
  • Language Hindi
  • Total size 806.0 MB
  • Uploaded By dshareX
  • Downloads 2460
  • Last checked 3 months ago
  • Date uploaded 6 years ago
  • Seeders 0
  • Leechers 0

Infohash : 0C4768280E68B9BEDF8B854C08CC01A6F79A64DB

Jism 2 Movie Information, Screenshots, Cast, YouTube Trailer & More at:
http://iwatchonlinemovie.in/jism-2-movie/



NFO:

Code:


Format : AVI
Format/Info : Audio Video Interleave
File size : 805 MiB
Duration : 2h 5mn
Overall bit rate : 895 Kbps

Video
ID : 0
Format : MPEG-4 Visual
Format profile : Advanced [email protected]
Format settings, BVOP : 2
Format settings, QPel : Yes
Format settings, GMC : 3 warppoints
Format settings, Matrix : Default (H.263)
Codec ID : XVID
Codec ID/Hint : XviD
Duration : 2h 5mn
Bit rate : 759 Kbps
Width : 656 pixels
Height : 256 pixels
Display aspect ratio : 2.563
Frame rate : 25.000 fps
Color space : YUV
Chroma subsampling : 4:2:0
Bit depth : 8 bits
Scan type : Progressive
Compression mode : Lossy
Bits/(Pixel*Frame) : 0.181
Stream size : 683 MiB (85%)
Writing library : XviD 1.2.1 (UTC 2008-12-04)

Audio
ID : 1
Format : AC-3
Format/Info : Audio Coding 3
Mode extension : CM (complete main)
Format settings, Endianness : Big
Codec ID : 2000
Duration : 2h 5mn
Bit rate mode : Constant
Bit rate : 128 Kbps
Channel(s) : 2 channels
Channel positions : Front: L R
Sampling rate : 48.0 KHz
Bit depth : 16 bits
Compression mode : Lossy
Stream size : 115 MiB (14%)
Alignment : Aligned on interleaves
Interleave, duration : 64 ms (1.60 video frames)
Interleave, preload duration : 192 ms



Files:

Screenshots
  • vlcsnap-2012-08-11-11h07m50s98.png (246.9 KB)
  • vlcsnap-2012-08-11-11h07m38s223.png (244.1 KB)
  • vlcsnap-2012-08-11-11h08m38s59.png (150.3 KB)
  • Jism 2 (Hindi) 2012 DVDSCR XviD-NRG.avi (805.3 MB)
  • Jism 2 (Hindi) 2012 DVDSCR XviD-NRG.srt (41.5 KB)
  • Jism 2 (Hindi) 2012 DVDSCR XviD-NRG.nfo (2.4 KB)
  • Tracked By 1337x.Org.txt (0.0 KB)
  • Tracked By H33T.Com.txt (0.0 KB)

There are currently no comments. Feel free to leave one :)

Code:

  • udp://tracker.1337x.org:80/announce
  • udp://tracker.openbittorrent.com:80/announce
  • udp://tracker.istole.it:80/announce
  • http://bigtorrent.org:2710/announce