Slugterra | iKON - 'BLING BLING' M/V.mp3 | Adventure Time S07E12 HDTV x264-W4F [eztv]Tactik saison 1 épisode 41 | Sayonara, Itoshi No My Friend | Gaming LiveShadow of the Tomb Raider : une jungle remplie de dangers

Naruto Shippuden Season 7 [144-151][480p] eng dub

  • Category Anime
  • Type Anime
  • Language English
  • Total size 403.9 MB
  • Uploaded By MrX01
  • Downloads 2044
  • Last checked 3 months ago
  • Date uploaded 6 years ago
  • Seeders 5
  • Leechers 1

Infohash : 91D5F3D427C5C2FBA73D5D858C638B0A2B67ED42


Episode list:

Code:


144."Wanderer"
"Fūraibō" (風来坊)
145."Successor of the Forbidden Jutsu"
"Kinjutsu no keishōsha" (禁術の継承者)
146."The Successor's Wish"
"Keishōsha no omoi" (継承者の想い)
147."Rogue Ninja's Past"
"Nukenin no kako" (抜け忍の過去)
148."Heir to Darkness"
"Yami no kōkeisha" (闇の後継者)
149."Separation"
"Betsuri" (別離)
150."The Forbidden Jutsu Released"
"Kinjutsu hatsudō" (禁術発動)
151."Master and Student"
"Shitei" (師弟)


Other info:

Code:


Format : MPEG-4
Format profile : Base Media
Codec ID : isom
File size : 50.5 MiB
Duration : 22mn 23s
Overall bit rate mode : Variable
Overall bit rate : 315 Kbps
Encoded date : UTC 2012-07-11 09:35:24
Tagged date : UTC 2012-07-11 09:35:24
Video
ID : 1
Format : AVC
Format/Info : Advanced Video Codec
Format profile : [email protected]
Format settings, CABAC : Yes
Format settings, ReFrames : 5 frames
Codec ID : avc1
Codec ID/Info : Advanced Video Coding
Duration : 22mn 23s
Bit rate : 264 Kbps
Maximum bit rate : 3 210 Kbps
Width : 720 pixels
Height : 480 pixels
Display aspect ratio : 16:9
Original display aspect ratio : 16:9
Frame rate mode : Constant
Frame rate : 23.976 fps
Standard : NTSC
Color space : YUV
Chroma subsampling : 4:2:0
Bit depth : 8 bits
Scan type : Progressive
Bits/(Pixel*Frame) : 0.032
Stream size : 42.3 MiB (84%)
Writing library : x264 core 125 r2200 999b753
Audio
ID : 2
Format : AAC
Format/Info : Advanced Audio Codec
Format profile : HE-AAC / LC
Codec ID : 40
Duration : 22mn 23s
Bit rate mode : Variable
Bit rate : 48.0 Kbps
Maximum bit rate : 88.3 Kbps
Channel(s) : 2 channels
Channel positions : Front: L R
Sampling rate : 48.0 KHz / 24.0 KHz
Compression mode : Lossy
Stream size : 7.69 MiB (15%)
Encoded date : UTC 2012-07-11 09:35:27
Tagged date : UTC 2012-07-11 09:35:28


Sample image:

Files:

  • Naruto Shippuden 144 eng dub.mp4 (50.5 MB)
  • Naruto Shippuden 145 eng dub.mp4 (50.4 MB)
  • Naruto Shippuden 146 eng dub.mp4 (50.5 MB)
  • Naruto Shippuden 147 eng dub.mp4 (50.5 MB)
  • Naruto Shippuden 148 eng dub.mp4 (50.5 MB)
  • Naruto Shippuden 149 eng dub.mp4 (50.5 MB)
  • Naruto Shippuden 150 eng dub.mp4 (50.5 MB)
  • Naruto Shippuden 151 eng dub.mp4 (50.5 MB)
  • Torrent downloaded from 1337x.org.txt (0.0 KB)
  • Torrent downloaded from Demonoid.me.txt (0.0 KB)
  • Torrent downloaded from kat.ph.txt (0.0 KB)
  • Torrent downloaded from thepiratebay.org.txt (0.0 KB)

There are currently no comments. Feel free to leave one :)

Code:

  • udp://tracker.openbittorrent.com:80/announce
  • udp://tracker.publicbt.com:80/announce
  • http://cpleft.com:2710/announce
  • udp://tracker.openbittorrent.com:80
  • udp://tracker.ccc.de:80
  • udp://tracker.publicbt.com:80
  • http://bt.home-ix.ru/announce
  • http://tracker.novalayer.org:6969/announce
  • udp://tracker.1337x.org:80/announce
  • http://10.rarbg.com/announce
  • http://announce.torrentsmd.com:8080/announce
  • http://tracker.pow7.com/announce
  • http://tracker.torrentbay.to:6969/announce
  • http://tracker.ex.ua/announce
  • http://exodus.desync.com:6969/announce
  • udp://tracker.istole.it:80/announce
  • http://inferno.demonoid.me:3390/announce
  • udp://11.rarbg.com/announce
  • udp://tracker.istole.it:80/announce
  • udp://tracker.ccc.de:80/announce
  • http://www.h33t.com:3310/announce
  • http://tracker.torrentbay.to:6969/announce
  • http://9.rarbg.com:2710/announce
  • http://bigtorrent.org:2710/announce
  • http://121.14.98.151:9090/announce
  • http://bttrack.9you.com/:8080/announce
  • http://r165.server.lu:6969/announce
  • http://tracker.coppersurfer.tk:6969/announce
  • http://puto.me:6969/announce
  • http://tracker.0rz.ca/announce
  • http://torrent.falcoware.com/announce.php
  • http://www.elitezones.ro/announce.php